Jump to content

player+ – wspólna oferta player.pl oraz Platformy CANAL+


Recommended Posts

"CANAL+ 30 DNI + 30 DNI GRATIS.    Wszedłem na stronę i wyświetliła się ta  reklama. Chyba że jest to coś związane z reklamacją? Miałem włączony odnawialny pakiet Canal+ z Eleven, nie przedłużył się a obecnie jest niedostępny.

Edited by szunaj
Link to post
Share on other sites
  • 3 weeks later...
  • 2 weeks later...
9 minut temu, umek napisał:

ale do Netflixa daleko

Ale wiesz, że jest różnica pomiędzy materiałami live które są transkodowane w locie, a materiałami z dysku, które są enkodowane na spokojnie enkodem dwuetapowym i zdecydowanie lepszymi algorytmami.

Link to post
Share on other sites

A to to się zgodzę.

Parametry przykladowego koncertu na player:

Complete name               : Bednarek - MTV Unplugged - player.pl .m2ts

Format                      : MPEG-4
Format profile              : Base Media
Codec ID                    : isom (isom/iso2/avc1/mp41)
File size                   : 1.58 GiB
Duration                    : 1 h 14 min
Overall bit rate mode       : Variable
Overall bit rate            : 3 043 kb/s
Writing application         : Lavf56.4.101

Video
ID                          : 1
Format                      : AVC
Format/Info                 : Advanced Video Codec
Format profile              : [email protected]
Format settings             : 2 Ref Frames
Format settings, CABAC      : No
Format settings, Reference  : 2 frames
Format settings, GOP        : M=1, N=50
Codec ID                    : avc1
Codec ID/Info               : Advanced Video Coding
Duration                    : 1 h 14 min
Bit rate                    : 2 798 kb/s
Width                       : 1 280 pixels
Height                      : 720 pixels
Display aspect ratio        : 16:9
Frame rate mode             : Constant
Frame rate                  : 25.000 FPS
Color space                 : YUV
Chroma subsampling          : 4:2:0
Bit depth                   : 8 bits
Scan type                   : Progressive
Bits/(Pixel*Frame)          : 0.121
Stream size                 : 1.45 GiB (92%)
Tagged date                 : UTC 2019-06-17 17:59:35
Codec configuration box     : avcC

Audio
ID                          : 2
Format                      : AAC LC
Format/Info                 : Advanced Audio Codec Low Complexity
Codec ID                    : mp4a-40-2
Duration                    : 1 h 14 min
Bit rate mode               : Variable
Bit rate                    : 128 kb/s
Maximum bit rate            : 131 kb/s
Channel(s)                  : 2 channels
Channel layout              : L R
Sampling rate               : 48.0 kHz
Frame rate                  : 46.875 FPS (1024 SPF)
Compression mode            : Lossy
Stream size                 : 67.8 MiB (4%)
Default                     : Yes
Alternate group             : 1
Tagged date                 : UTC 2019-06-17 17:59:35

Link to post
Share on other sites

Join the conversation

You can post now and register later. If you have an account, sign in now to post with your account.

Guest
Reply to this topic...

×   Pasted as rich text.   Paste as plain text instead

  Only 75 emoji are allowed.

×   Your link has been automatically embedded.   Display as a link instead

×   Your previous content has been restored.   Clear editor

×   You cannot paste images directly. Upload or insert images from URL.

  • Recently Browsing   0 members

    No registered users viewing this page.

×
×
  • Create New...