Jump to content
bobasek

Drużyna A

Recommended Posts

Cieszyłem się jak dziecko.Normalnie jakbyśmy się wrócili do lat 90. Brakowało tylko Dirka Benedicta ale zobaczymy go w środę.Tyle stacji mamy na rynku ale to ta niedobra TVP zaskoczyła i postawiła na ten serial. Brawo !

Share this post


Link to post
Share on other sites

Miałem się zabierać za oglądanie całego serialu hurtem z DVD, ale jak zobaczyłem odnowiony serial i w HD na TVP to wybieram wolniejsze oglądanie w TV. :)

Share this post


Link to post
Share on other sites
Guest Anonymous

Niestety dopiero niedawno ściągnąłem na chatę i nie mogłem obejrzeć tego kultowego serialu. Czyli mówicie, że TVP się nam postarała - jak chcą to potrafią. Jutro koniecznie muszę to zobaczyć. O 01:05 też powtórka to może sobie nagram.

Share this post


Link to post
Share on other sites

szkoda że do tvp seriale nie wrzucą tam seriali amerykańskich co gniją na półkach lub wykupić licencję... w tvp 1 nie ma już stałego pasma seriali tak jak to było kiedyś.... do dziś nie wiedziałem ze ten serial dziś był ...

Share this post


Link to post
Share on other sites
Niestety dopiero niedawno ściągnąłem na chatę i nie mogłem obejrzeć tego kultowego serialu.

Ja teraz wróciłem z popołudniowej zmiany, ale przed wyjściem nastawiłem magnetowid i właśnie oglądam :lol:

Share this post


Link to post
Share on other sites

Ja pierwszy odcinek już nagrałem jako plik .ts - zamierzam nagrać wszystkie odcinki dla swojej małej prywatnej kolekcji :-)

Choć wybrałem sobie wersję z kanału TVP 1 bo nie mam przekonania do kanałów HD....

Share this post


Link to post
Share on other sites
Guest Anonymous

Czemu nie masz przekonania? Ja właśnie się zastanawiam czy nie warto by było sobie zarciwizować, zwłaszcza że to odnowiona cyfrowo wersja ze świetną jakością.

Share this post


Link to post
Share on other sites

Pasy czarne po bokach to pillarbox (tak było nadawane o 15:45 w TVP1 HD bo inaczej na kanale HD nadawać się nie da). Pasy czarne na dole i na górze to letterbox.

Share this post


Link to post
Share on other sites
Ja właśnie się zastanawiam czy nie warto by było sobie zarciwizować, zwłaszcza że to odnowiona cyfrowo wersja ze świetną jakością.
Też mam zamiar nagrać wszystkie odcinki. 98 odc. po ponad 40 min. - trochę to miejsca zajmie.

Share this post


Link to post
Share on other sites

trochę lektor Maciej Gudowski mi nie pasuje, musiał byś odświeżyć swoją kolekcję i posłuchać kto podkłada lektora ale był o wiele lepszy...ale to tylko moja uwaga.. :wink:

Share this post


Link to post
Share on other sites

Spore zainteresowanie w tym temacie.Wrzuci ktoś screeny z ts doktora ? Ja narazie nie mogę nagrać bo wyskakuje mi sformatuj dysk a muszę go najpierw opróżnić bo szkoda kasować mojej kolekcji nagrań.

Share this post


Link to post
Share on other sites
Guest Anonymous

Mi pierwszy odcinek o długości 42:49 nagrany z TVP1 HD po obrobieniu w VideoReDo i zostawieniu jedynie jednej ścieżki audio DD+ 256 kb/s zajął 1,92 GB. Czyli wychodzi gdzieś dwa odcinki na płytkę DVD.

Share this post


Link to post
Share on other sites

Odcinek nagrany z DVB-T telewizorem Samsung po usunięciu DRM.

 

General
ID                                       : 14 (0xE)
Complete name                            : C:\temp\2013.11.19_14h45_TVP1 HD - Drużyna A.ts
Format                                   : MPEG-TS
File size                                : 2.54 GiB
Duration                                 : 55mn 0s
Overall bit rate mode                    : Variable
Overall bit rate                         : 6 615 Kbps

Video
ID                                       : 2651 (0xA5B)
Menu ID                                  : 1401 (0x579)
Format                                   : AVC
Format/Info                              : Advanced Video Codec
Format profile                           : [email protected]
Format settings, CABAC                   : Yes
Format settings, ReFrames                : 4 frames
Codec ID                                 : 27
Duration                                 : 45mn 0s
Bit rate                                 : 6 126 Kbps
Width                                    : 1 920 pixels
Height                                   : 1 080 pixels
Display aspect ratio                     : 16:9
Frame rate                               : 25.000 fps
Color space                              : YUV
Chroma subsampling                       : 4:2:0
Bit depth                                : 8 bits
Scan type                                : MBAFF
Bits/(Pixel*Frame)                       : 0.118
Stream size                              : 2.35 GiB (93%)

Audio
ID                                       : 4651 (0x122B)
Menu ID                                  : 1401 (0x579)
Format                                   : MPEG Audio
Format version                           : Version 1
Format profile                           : Layer 2
Codec ID                                 : 4
Duration                                 : 55mn 0s
Bit rate mode                            : Constant
Bit rate                                 : 160 Kbps
Channel(s)                               : 2 channels
Sampling rate                            : 48.0 KHz
Compression mode                         : Lossy
Delay relative to video                  : -754ms
Stream size                              : 63.0 MiB (2%)
Language                                 : Polish

Share this post


Link to post
Share on other sites
U Was też podczas napisów końcowych dzisiejszego odcinka były zakłócenia obrazu?

 

Ja nagrywałem na VHS z TVP1 SD, gdyż nie miałem możliwości obejrzeć o 15:45, i żadnych zakłóceń nie mam.

Share this post


Link to post
Share on other sites
Mi pierwszy odcinek o długości 42:49 nagrany z TVP1 HD po obrobieniu w VideoReDo i zostawieniu jedynie jednej ścieżki audio DD+ 256 kb/s zajął 1,92 GB. Czyli wychodzi gdzieś dwa odcinki na płytkę DVD.
Mi wyjdzie 4/5 odcinków na jedną płytę DVD+R. Nagrywam całkiem inną prędkością.

Share this post


Link to post
Share on other sites
Guest Anonymous

Całkiem inną prędkością - mógłbyś rozwinąć co masz konkretnie na myśli? Jakie masz źródło nagrywania? Ja TVP1 HD z DVB-T, tuner Wiwa HD-90 zapisujący na pendrive oryginalny strumień z rozszerzeniem .mts. Potem to wrzucam do VideoReDo, wycinam zbędne jakieś reklamy przed i po, zostawiam jedną ścieżkę audio i zapisuję bez zmian jakości do pliku .ts (to jest jedno i to samo co .mts tylko bardziej powszechnie stosowane). Płytka DVD ma pojemność rzeczywistą 4,37 GB. Pierwszy odcinek 1,92 GB, drugi pewnie podobnie (jeszcze leży na penie), czyli zmieszczą się gdzieś dwa odcinki. 4-5 odcinków może wyjść jak nagrywasz z TVP1 SD.

Share this post


Link to post
Share on other sites

Jak się tak nie bawię, za dużo roboty byłoby z tym wszystkim. Nagrywarka DVD ma różne tryby, począwszy od XP. W SP lub LP zmieści się więcej odcinków, a jakość teoretycznie nie ulega pogorszeniu przy tym serialu.

Share this post


Link to post
Share on other sites

Join the conversation

You can post now and register later. If you have an account, sign in now to post with your account.

Guest
Reply to this topic...

×   Pasted as rich text.   Paste as plain text instead

  Only 75 emoji are allowed.

×   Your link has been automatically embedded.   Display as a link instead

×   Your previous content has been restored.   Clear editor

×   You cannot paste images directly. Upload or insert images from URL.


  • Recently Browsing   0 members

    No registered users viewing this page.

×
×
  • Create New...