Jump to content
SatExpert

[reg] Echo24 TV

Recommended Posts

Guest kingofsouth

Jeśli ATM wykorzysta swój sprzęt jaki posiada a nie raz widziałem odwiedzając Topacz to może będzie w HD to wszystko ;)

Edited by kingofsouth

Share this post


Link to post
Share on other sites

14516412_1416052062026856_64777544737219

14440870_1416041975361198_60493724823668

 

Ciekawe, kto poprowadzi te poranki? ;)

Edited by Barti
Zdanie pytające kończymy znakiem zapytania, a nie kropką. Poprawiono post.

Share this post


Link to post
Share on other sites
Guest kingofsouth

To nie jest tam gdzie ATM ma swoją siedzibę czyli Bielany Wrocławskie ? ;)

W tle widać domki i osiedle obok takie odnoszę wrażenie  :D

Edited by kingofsouth

Share this post


Link to post
Share on other sites
Guest kingofsouth

Dosyć często zdarza mi się tamtędy jeździć nawet dziś bo omija się korki na Zwycięskiej dlatego kojarzę te rejony
:razz:
Trzymam kciuki za start stacji bo zapowiada się coraz bardziej ciekawie :-)
Mam nadzieję że mają dobrą ekipę dziennikarska bo TVP 3 Wrocław już mi się przejadło :wink:

Edited by kingofsouth
Proszę wyłączyć w aplikacji Tapatalk automatyczne dopisywanie do postu informacji o posiadanym urządzeniu mobilnym. Poprawiono post.

Share this post


Link to post
Share on other sites

Z tego, co podali w 2015 roku, Echo ma nadawać naziemnie i kablowo. Skąd niby mowa, że drogą satelitarną?

Edited by Barti
Pisząc posty należy poprawnie stosować znaki interpunkcyjne. Poprawiono post.

Share this post


Link to post
Share on other sites

Naprawdę ładnie to wygląda. No, ale nie ma co się dziwić, w końcu to ATM. Obawiam się jednak, że nie będę mógł nigdzie obejrzeć choćby z ciekawości.

Share this post


Link to post
Share on other sites

Na fejsie coś pisali, że rozważają nadawanie na Hotbirdzie. :)

 

Z tego, co pamiętam to "Echo24" napisał, że "by chcieli", zresztą edytował i już tego tam nie ma.

Share this post


Link to post
Share on other sites

Oficjalną ramówkę, jak i programy oraz cennik reklam Echo24 TV poznamy dopiero w dniu startu kanału, 3 października br. Wiem o tym od Rzecznik Prasowej ATM-u.

Edited by Frontowiec

Share this post


Link to post
Share on other sites

Najwidoczniej wolą nie zapeszać i chcą mieć wszystko przygotowane w każdym szczególe, a dopiero potem to ogłosić, niż najpierw obiecać nie wiadomo co, by potem się wycofywać.

Share this post


Link to post
Share on other sites

No i mamy info o kolejnym programie:

 

To się dzieje! Tak wygląda nowe studio Echo24. Bardzo nowocześnie. Mega profesjonalnie. Startujemy 3 października, i na antenie 50 kucharzy z Wrocławia i Dolnego Śląska - wszystko w ramach #KochamJeść!

http://kochamjesc.pl

https://www.facebook.com/Kocham-Je%C5%9B%C4%87-312234225806971/

 

 

No i pojawiają się też twarze:

 

https://www.facebook.com/izabelofficial/

 

https://www.facebook.com/photo.php?fbid=858345994300712&set=a.103003126501673.1847.100003759573746&type=3&theater

Share this post


Link to post
Share on other sites

A jeszcze z Trudnych spraw , Dzień, który zmienił moje życie czy chyba też nawet Ukrytej prawdy TVN-u :-D

 

Kto by pomyślał, że takie seriale otworzą okno do większej kariery :-D

 

Ale co jak co, babka całkiem niezła B) A jak zna się na rzeczy, to czemu nie ;-)

Edited by Emil.1603

Share this post


Link to post
Share on other sites

materiał trochę mi przypomina poważniejszą wersję tego odcinka Kiepskich :P Też budowa, też trzęsące się talerze, też Wrocław :D

 

A

zabrakło informacji, że właścicielem był niejaki Marian Paździoch :D

 

Co do materiałów... Szkoda, że bez oprawy ekranowej. Przy większej ilości materiałów oczywiście mogliby to pogrupować w playlisty. Natomiast tytułowanie mogliby poprawić i zdecydować się na jeden szablon, a nie raz z capslockiem, a raz normalnie ;-)

Share this post


Link to post
Share on other sites

@Emil.1603

Może dlatego, że jeszcze do niedzieli testują. W poniedziałek rozpocznie się regularna emisja z oficjalną ramówką, więc dopiero wtedy dowiemy się czy te ''Podsumowanie Tygodnia'' będzie w niedzielę.

Edited by Frontowiec

Share this post


Link to post
Share on other sites

Stacja jest już w HD i ma EPG.

Jakość nagrania

 

General
ID                               : 45138 (0xB052)
Complete name                    : C:\1\2016-10-01 01-34-57 - Echo 24 TV - Rozmowa Echo24.ts
Format                           : MPEG-TS
File size                        : 17.7 MiB
Duration                         : 31s 441ms
Overall bit rate                 : 4 700 Kbps

Video
ID                               : 2801 (0xAF1)
Menu ID                          : 39 (0x27)
Format                           : AVC
Format/Info                      : Advanced Video Codec
Format profile                   : [email protected]
Format settings, CABAC           : Yes
Format settings, ReFrames        : 4 frames
Format settings, GOP             : M=1, N=24
Codec ID                         : 27
Duration                         : 31s 600ms
Bit rate                         : 4 274 Kbps
Width                            : 1 920 pixels
Height                           : 1 080 pixels
Display aspect ratio             : 16:9
Frame rate                       : 25.000 fps
Standard                         : Component
Color space                      : YUV
Chroma subsampling               : 4:2:0
Bit depth                        : 8 bits
Scan type                        : Interlaced
Scan order                       : Top Field First
Bits/(Pixel*Frame)               : 0.082
Stream size                      : 16.1 MiB (91%)
Color primaries                  : BT.709-5, BT.1361, IEC 61966-2-4, SMPTE RP177
Transfer characteristics         : BT.709-5, BT.1361
Matrix coefficients              : BT.709-5, BT.1361, IEC 61966-2-4 709, SMPTE RP177

Audio
ID                               : 2802 (0xAF2)
Menu ID                          : 39 (0x27)
Format                           : MPEG Audio
Format version                   : Version 1
Format profile                   : Layer 2
Codec ID                         : 3
Duration                         : 31s 464ms
Bit rate mode                    : Constant
Bit rate                         : 192 Kbps
Channel(s)                       : 2 channels
Sampling rate                    : 48.0 KHz
Compression mode                 : Lossy
Delay relative to video          : -523ms
Stream size                      : 737 KiB (4%)
Language                         : Polish
 

Edited by remekkkkk

Share this post


Link to post
Share on other sites
Guest kingofsouth

Sprawdzam i...... potwierdzam :P :brawo:

Antena pokojowa nie jakaś tam zewnętrzna :cool:

 

DSC_0558.jpg

 

 

DSC_0559.jpg

 

 

DSC_0560.jpg

Edited by kingofsouth

Share this post


Link to post
Share on other sites

Stacja jest już w HD i ma EPG.

Jakość nagrania

Jest możliwość uploadu gdzieś tego nagrania? :-)

Chętnie bym zobaczył kawałek tego kanału w ruchu w oryginalnej jakości :-)

Share this post


Link to post
Share on other sites

Join the conversation

You can post now and register later. If you have an account, sign in now to post with your account.

Guest
Reply to this topic...

×   Pasted as rich text.   Paste as plain text instead

  Only 75 emoji are allowed.

×   Your link has been automatically embedded.   Display as a link instead

×   Your previous content has been restored.   Clear editor

×   You cannot paste images directly. Upload or insert images from URL.


  • Recently Browsing   0 members

    No registered users viewing this page.

×
×
  • Create New...