Jump to content

Recommended Posts

Wow. Stacja robi wrażenie. Ciekawe, czy jeszcze kiedyś puszczą kawałek Bożenka w wykonaniu zespołu Bracia Figo Fagot. :lol2:

No i masz Figo Fagotów, ale jakieś "Zobacz dzi*ko co narobiłaś".

 

Jestem zażenowany, no ale... stacja idealnie skrojona pod polskiego widza.

Share this post


Link to post
Share on other sites

Cieszył bym się gdyby był program, który cyklicznie prezentuje muzykę danego gatunku, np rock, hiphop, reggae, pop nie obeszło by sie pewnie bez disco polo. Nowości, trendy, zespoły, hity, myślę że to mógł by być ciekawy program teoretycznie dla każdego, a praktycznie każdy miał by "coś" dla siebie.

Share this post


Link to post
Share on other sites

Witam na jakich parametrach działa Power TV? Wczoraj było na 11508V ale nie na tym kanale test1.

Share this post


Link to post
Share on other sites
Jest to nowa stacja dlatego logo powinno być WIĘKSZE by stacja była bardziej zauważalna przez nowych widzów...
O to się nie bój. Każdy dowidzi.

 

Ech, coś mi się wydaje, że będzie to TV.DISCO 2.

Share this post


Link to post
Share on other sites

Power TV od samego początku nie ukrywało,że chcą być taką telewizyjną wersją nowego formatu Radia Plus,więc co się tak dziwicie? Od samego początku oglądając filmik (

) wiedziałem,że będzie tam dużo Disco Polo ze względu na sukces POLO TV i w/w radia.

Share this post


Link to post
Share on other sites

Power TV, TV.Disco, Polo TV, iTV. I dodatkowo pasma z disco-polo w kanałach typu Love. Fan Disco-Polo ma w czym wybierać! Mam nadzieję, że nasycenie rynku będzie już tak duże, że odbiorcy będą mieli dosyć i zaczną poszukiwać innych nurtów.

A gdzie fan polskiego jazzu, bluesa, muzyki klasycznej, muzyki filmowej może się odnaleźć? Gdzie można zobaczyć Domowe Melodie, Melę Koteluk i Agę Zaryan? Ale nie incydentalnie, tylko pokazywane regularnie w playliście?

A gdzie lecą kawałki heavy-metalowe i ciężki rock?

Share this post


Link to post
Share on other sites

Jakość kanału jest tragiczna pomimo,iż nadają w MPEG-4 to jest totalna pikseloza.Bardzo przypomina ITV no więc mamy kolejną badziewną szmirę :chair:coś czuję,że skończą jak HOT TV. :twisted:

Share this post


Link to post
Share on other sites

A czemu zakładasz, że Power też nie polubią? Nadają od kilkunastu godzin, poprawią się. STARS też miała duże problemy na starcie, jak wszyscy pamiętamy :)

Share this post


Link to post
Share on other sites
Guest poziom
D:\ds_20131120_0537550918.ts

General #1600

ID : 1600 (0x640)

Complete name : D:\ds_20131120_0537550918.ts

Format : MPEG-TS

File size : 10.5 MiB

Duration : 43s 552ms

Start time : UTC 2013-11-20 04:37:47

End time : UTC 2013-11-20 04:38:30

Overall bit rate mode : Variable

Overall bit rate : 2 010 Kbps

Country : POL

Timezone : +01:00:00

Video #526

ID : 526 (0x20E)

Menu ID : 15815 (0x3DC7)

Format : AVC

Format/Info : Advanced Video Codec

Format version : Version 2

Format profile : [email protected]

Format settings, CABAC : Yes

Format settings, ReFrames : 4 frames

Format settings, GOP : M=3, N=24

Codec ID : 27

Duration : 43s 0ms

Bit rate : 1 717 Kbps

Maximum bit rate : 1 747 Kbps

Width : 544 pixels

Height : 576 pixels

Display aspect ratio : 1.85:1

Frame rate : 25.000 fps

Color space : YUV

Chroma subsampling : 4:2:0

Bit depth : 8 bits

Scan type : Interlaced

Scan order : Top Field First

Bits/(Pixel*Frame) : 0.219

Stream size : 8.80 MiB (84%)

Color primaries : BT.601 PAL

Transfer characteristics : BT.470 System B, BT.470 System G

Matrix coefficients : BT.601

Audio #730

ID : 730 (0x2DA)

Menu ID : 15815 (0x3DC7)

Format : MPEG Audio

Format version : Version 1

Format profile : Layer 2

Codec ID : 4

Duration : 43s 368ms

Bit rate mode : Constant

Bit rate : 192 Kbps

Maximum bit rate : 197 Kbps

Channel count : 2 channels

Sampling rate : 48.0 KHz

Compression mode : Lossy

Delay relative to video : -1s 593ms

Stream size : 1 016 KiB (9%)

Language : Polish

 

 

 

Stars dalej ma gratis od polsatu w postaci wyższego bitrate :lol2:

D:\ds_20131120_1036480257.ts

General #12000

ID : 12000 (0x2EE0)

Complete name : D:\ds_20131120_1036480257.ts

Format : MPEG-TS

File size : 25.0 MiB

Duration : 1mn 2s

Start time : UTC 2013-11-20 09:36:55

End time : UTC 2013-11-20 09:37:53

Overall bit rate mode : Variable

Overall bit rate : 3 368 Kbps

Country : POL

Timezone : +02:00:00

Video #259

ID : 259 (0x103)

Menu ID : 15903 (0x3E1F)

Format : AVC

Format/Info : Advanced Video Codec

Format profile : [email protected]

Format settings, CABAC : Yes

Format settings, ReFrames : 3 frames

Codec ID : 27

Duration : 1mn 1s

Bit rate : 2 943 Kbps

Width : 720 pixels

Height : 576 pixels

Display aspect ratio : 16:9

Frame rate : 25.000 fps

Standard : Component

Color space : YUV

Chroma subsampling : 4:2:0

Bit depth : 8 bits

Scan type : Interlaced

Scan order : Top Field First

Bits/(Pixel*Frame) : 0.284

Stream size : 21.6 MiB (86%)

Color primaries : BT.601 PAL

Transfer characteristics : BT.470 System B, BT.470 System G

Matrix coefficients : BT.601

Audio #515

ID : 515 (0x203)

Menu ID : 15903 (0x3E1F)

Format : MPEG Audio

Format version : Version 1

Format profile : Layer 2

Codec ID : 4

Duration : 1mn 2s

Bit rate mode : Constant

Bit rate : 256 Kbps

Channel count : 2 channels

Sampling rate : 48.0 KHz

Compression mode : Lossy

Delay relative to video : -497ms

Stream size : 1.89 MiB (8%)

Share this post


Link to post
Share on other sites
A czemu zakładasz, że Power też nie polubią? Nadają od kilkunastu godzin, poprawią się. STARS też miała duże problemy na starcie, jak wszyscy pamiętamy :)

Oj nie wiem czy się poprawią ITV ndaje już tyle lat a jaka jest jego jakość to każdy widzi.Po za tym chodzi też o gatunek granej muzyki ja nie trawię Disco Polo. :evil:

Share this post


Link to post
Share on other sites
Guest Anonymous
Większa niż na Starsie??

Jeżeli chodzi o jakość techniczną to możecie spać spokojnie. Jak na razie Power TV prezentuje nędzę i nawet zrekonstruowane teledyski im nie pomogą. :) Oczywiście mowa jest o satelicie, bo w kablu może to lepiej wygląda. :)

Share this post


Link to post
Share on other sites

Ważne, że nie boją się postępu techniki i są w DVB-S2, jak narazie jakość techniczna nie powala ale w końcu to test. Walną HD po teście i będzie disco polo w HD.

Share this post


Link to post
Share on other sites

Nie ma to jak oglądać stare teledyski bez pillarboxu (4:3 z WSS) ma-sa-kra! :evil:

Share this post


Link to post
Share on other sites

Join the conversation

You can post now and register later. If you have an account, sign in now to post with your account.

Guest
Reply to this topic...

×   Pasted as rich text.   Paste as plain text instead

  Only 75 emoji are allowed.

×   Your link has been automatically embedded.   Display as a link instead

×   Your previous content has been restored.   Clear editor

×   You cannot paste images directly. Upload or insert images from URL.


  • Recently Browsing   0 members

    No registered users viewing this page.

×
×
  • Create New...